--------------------------------------------------------------
Ice Age 2 The Meltdown 2006 BRRip 720p x264 [HinDi-Eng]
--------------------------------------------------------------





RELEASE NOTE
Code:
SoURcE: Junkyard (My OWN)
SiZE: 2.27 GiB 
iMDB:  http://www.imdb.com/title/tt0438097/
RATiNG: 6.8/10 (55,087 votes)
RElEAsE DaTE:    21 April 2006 InDiA
AUDIO: Hindi, English
SubTiTles: N/A
EnCoDe Date: 2011.02.27
Runtime: 01:30:36
Taglines: The Ice age is coming to an end
EnCoDeR: ME (SnowDoN aka Vickey007
Sample:  WiTh ToRReNt 



Director: Carlos Saldanha


Genres:
Animation | Action | Adventure | Comedy | Family | Fantasy | Romance
General
Complete name                    : Ice Age 2 The Meltdown 2006 BRRip 720p x264 [HinDi-Eng] - [SnowDoN-!!!v].mkv
Format                           : Matroska
File size                        : 2.27 GiB
Duration                         : 1h 30mn
Overall bit rate                 : 3 582 Kbps
Movie name                       : Ice Age 2 The Meltdown 2006 BRRip 720p x264 [HinDi-Eng] - [SnowDoN-!!!v][/b]
Encoded date                     : UTC 2011-02-27 11:07:46
Writing application              : mkvmerge v4.4.0 ('Die Wiederkehr') built on Oct 31 2010 21:52:48
Writing library                  : libebml v1.0.0 + libmatroska v1.0.0

Video
ID                               : 1
Format                           : AVC
Format/Info                      : Advanced Video Codec
Format profile                   : High@L4.1
Format settings, CABAC           : Yes
Format settings, ReFrames        : 4 frames
Muxing mode                      : Container profile=Unknown@4.1
Codec ID                         : V_MPEG4/ISO/AVC
Duration                         : 1h 30mn
Bit rate                         : 2 679 Kbps
Nominal bit rate                 : 2 749 Kbps
Width                            : 1 280 pixels
Height                           : 688 pixels
Display aspect ratio             : 1.860
Frame rate                       : 23.976 fps
Resolution                       : 8 bits
Colorimetry                      : 4:2:0
Scan type                        : Progressive
Bits/(Pixel*Frame)               : 0.127


Audio #1
ID                               : 2
Format                           : MPEG Audio
Format version                   : Version 1
Format profile                   : Layer 3
Format_Settings_Mode             : Joint stereo
Codec ID                         : A_MPEG/L3
Codec ID/Hint                    : MP3
Duration                         : 1h 30mn
Bit rate mode                    : Constant
Bit rate                         : 192 Kbps
Channel(s)                       : 2 channels
Sampling rate                    : 44.1 KHz
Stream size                      : 124 MiB (5%)
Title                            : [HinDi] - [SnowDoN-!!!v]
Language                         : Hindi

Audio #2
ID                               : 3
Format                           : AC-3
Format/Info                      : Audio Coding 3
Codec ID                         : A_AC3
Duration                         : 1h 30mn
Bit rate mode                    : Constant
Bit rate                         : 640 Kbps
Channel(s)                       : 6 channels
Channel positions                : Front: L C R, Surround: L R, LFE
Sampling rate                    : 48.0 KHz
Stream size                      : 415 MiB (18%)
Title                            : [Eng] - [SnowDoN-!!!v]
Screens







::.DOWNLOAD::.



Single Links

::.Filesonic::.
Code:
http://www.ef.uplod.net/Ice_Age_2_The_Meltdown_2006_BRRip_720p_x264_HinDi-Eng & /file/288997621/Ice.age..2.2006.BRRip.720p.x264.dual.audio.eng.hindi.by.ManDan.JinImran.rar
OR


800 MB LINKS

::.Fileserve::.
Code:
http://www.ef.uplod.net/Ice_Age_2_The_Meltdown_2006_BRRip_720p_x264_HinDi-Eng & /file/TEsC58J/Ice.age..2.2006.BRRip.720p.x264.dual.audio.eng.hindi.by.ManDan.part1.rar
http://www.ef.uplod.net/Ice_Age_2_The_Meltdown_2006_BRRip_720p_x264_HinDi-Eng & /file/47ge9RA/Ice.age..2.2006.BRRip.720p.x264.dual.audio.eng.hindi.by.ManDan.part2.rar
http://www.ef.uplod.net/Ice_Age_2_The_Meltdown_2006_BRRip_720p_x264_HinDi-Eng & /file/Up9ApMj/Ice.age..2.2006.BRRip.720p.x264.dual.audio.eng.hindi.by.ManDan.part3.rar
http://www.ef.uplod.net/Ice_Age_2_The_Meltdown_2006_BRRip_720p_x264_HinDi-Eng & /file/MVnZxqg/Ice.age..2.2006.BRRip.720p.x264.dual.audio.eng.hindi.by.ManDan.part4.rar

OR
::.Filesonic::.
Code:
http://www.ef.uplod.net/Ice_Age_2_The_Meltdown_2006_BRRip_720p_x264_HinDi-Eng & /file/287851511/Ice.age..2.2006.BRRip.720p.x264.dual.audio.eng.hindi.by.ManDan.part1.rar
http://www.ef.uplod.net/Ice_Age_2_The_Meltdown_2006_BRRip_720p_x264_HinDi-Eng & /file/287879761/Ice.age..2.2006.BRRip.720p.x264.dual.audio.eng.hindi.by.ManDan.part2.rar
http://www.ef.uplod.net/Ice_Age_2_The_Meltdown_2006_BRRip_720p_x264_HinDi-Eng & /file/287934401/Ice.age..2.2006.BRRip.720p.x264.dual.audio.eng.hindi.by.ManDan.part3.rar
http://www.ef.uplod.net/Ice_Age_2_The_Meltdown_2006_BRRip_720p_x264_HinDi-Eng & /file/288330631/Ice.age..2.2006.BRRip.720p.x264.dual.audio.eng.hindi.by.ManDan.part4.rar

OR
::.Uploded::.
Code:
http://ul.to/gp7hznd8/Ice.age..2.2006.BRRip.720p.x264.dual.audio.eng.hindi.by.ManDan.part1.rar
http://ul.to/tbcetmap/Ice.age..2.2006.BRRip.720p.x264.dual.audio.eng.hindi.by.ManDan.part2.rar
http://ul.to/cdx7gcqo/Ice.age..2.2006.BRRip.720p.x264.dual.audio.eng.hindi.by.ManDan.part3.rar
http://ul.to/yxt3zprs/Ice.age..2.2006.BRRip.720p.x264.dual.audio.eng.hindi.by.ManDan.part4.rar
USE WINRAR TO EXTRACT THE ABOVE 800MB FILES
THIS UPLOAD COST YOU A SIMPLE THANKS: "SO DON'T FORGET TO SAY THANKS"

GUYS DON'T JUST DOWNLOAD. I HAVE SPENT ALOT OF TIME TO UPLOAD AND MAINTAIN ALL THE LINKS... WHICH TAKES ALOT OF TIME....
PLEASE SAY THANKS IF YOU LIKE THE EFFORT

::.THANKS TO UPLODER IRFANABADIT::.